#TITLE:Call Me;
#SUBTITLE:;
#ARTIST:TaeGoon;
#TITLETRANSLIT:Call Me;
#SUBTITLETRANSLIT:;
#ARTISTTRANSLIT:TaeGoon;
#CREDIT:Thu Sau , 20-3-2009;
#BANNER:Call Me-bn.png;
#BACKGROUND:Call Me-bg.png;
#LYRICSPATH:;
#CDTITLE:pm4cd.png;
#MUSIC:Call Me.mp3;
#OFFSET:-0.400;
#SAMPLESTART:59.220;
#SAMPLELENGTH:20.000;
#SELECTABLE:YES;
#BPMS:0.000=128.000,416.500=64.000;
#STOPS:;
#BGCHANGES:;
// cache tags:
#FIRSTBEAT:0.000;
#LASTBEAT:418.375;
#SONGFILENAME:Songs/Music V.I.P ^_^/Call Me/Call Me.sm;
#HASMUSIC:1;
#HASBANNER:1;
#MUSICLENGTH:198.812;
// end cache tags

//---------------dance-single - ----------------
#NOTES:
     dance-single:
     :
     Hard:
     15:
     1.000,1.000,1.000,0.246,1.000,1223.000,386.000,49.000,0.000,87.000:
1102
0100
0010
0100
,
0003
0100
1000
0100
0010
0001
0010
0000
,
2000
0010
0001
0010
,
3000
0100
0010
0001
0010
0100
1000
0000
,
0201
0010
0001
0000
1000
0000
0000
0000
0010
0000
0000
0000
1000
0000
0000
0000
,
0301
1000
0001
0000
0010
0000
0100
0000
1000
0000
0100
0000
0010
0000
0000
0000
,
1020
0100
1000
0000
0001
0000
0000
0000
0100
0000
0000
0000
0001
0000
0000
0000
,
0130
1000
0100
0000
0010
0000
0001
0000
0010
0000
0100
0000
1000
0000
0000
0000
,
1110
0001
0010
0100
0000
0010
0000
0100
,
1001
0100
0010
0001
0000
0100
0000
0010
,
0101
0010
0100
1000
0000
0001
1000
0100
,
1010
0100
0001
0010
0000
1000
0100
0001
,
0020
0001
0100
1000
0230
0000
0000
0010
,
1301
0010
0100
1000
0000
0010
0000
0001
,
2000
0001
0010
0100
3002
1000
0010
0100
,
1013
0100
0010
0001
0000
0010
0001
0010
,
1100
0100
0101
0010
0110
0100
1010
0001
,
0011
0100
0101
0001
0110
0100
1010
0010
,
1100
0100
0101
0010
0110
0100
1010
0010
,
1100
0000
0001
0000
0101
0000
1000
0000
0011
0000
0000
1010
1010
0000
1010
0000
,
1020
0000
2130
0000
,
3002
0010
1013
0010
,
0120
1100
0132
0110
,
1003
0100
0010
0001
0000
0001
0010
0100
,
1001
0010
1100
0010
1010
0010
0011
1000
,
0101
0010
0110
1000
1010
0010
0110
0001
,
1010
0100
0011
0010
0101
0010
0110
0100
,
1010
0001
1100
0010
1001
0100
0011
0110
,
1001
0000
0001
0000
0001
0000
0001
0000
0011
0000
0001
0000
0001
0000
0001
0000
0101
0000
0001
0000
0001
0000
0001
0000
1001
0000
0001
0000
0001
0000
0001
0010
,
0101
0000
0001
0000
0001
0000
0001
0000
0101
0000
0001
0000
0001
0000
0001
0000
1001
0000
0001
0000
0001
0000
0001
0000
0101
0000
0001
0000
0001
0000
0101
0010
,
1001
0000
0000
0000
0000
0000
0000
0000
0000
0000
0000
0000
1001
0000
0000
0000
0000
0000
0000
0000
0000
0000
0000
0000
1001
0000
0000
0000
0000
0000
0000
0000
0000
0000
0000
0000
1001
0000
0000
0000
0000
0000
0010
0000
0000
0000
0000
0000
1001
0000
0000
0000
0000
0000
0000
0000
0000
0000
0000
0000
1001
0000
0000
0000
0000
0000
0000
0000
0000
0000
0000
0000
1001
0000
0000
0000
0000
0000
0000
0000
0000
0000
0000
0000
1001
0000
0000
0000
0000
0000
0100
0000
0000
0000
0000
0000
1001
0000
0000
0000
0000
0000
0000
0000
1001
0000
0000
0000
0000
0000
0000
0000
1001
0000
0000
0000
0000
0000
0000
0000
1001
0000
0000
0000
0000
0000
0000
0000
1001
0000
0000
0000
0000
0000
0000
0000
1001
0000
0000
0000
0000
0000
0000
0000
1001
0000
0000
0000
0000
0000
1001
0000
0000
0000
0000
0000
1001
0000
0000
0000
0000
0000
1001
0000
0000
0000
0000
0000
1001
0000
0000
0000
0000
0000
1001
0000
0000
0000
0000
0000
1001
0000
0000
0000
0000
0000
1001
0000
0000
0000
0000
0000
,
2202
0000
0000
0000
,
3313
0100
0001
0010
1000
0100
0010
1000
0101
0010
0100
0010
0001
0100
0010
1000
,
0011
0100
0010
1000
0100
0010
0001
0010
1100
0010
0001
0100
0010
1000
0100
0001
,
0110
1000
0100
1000
0010
0100
1000
0001
1010
0100
0010
0001
1000
0010
0100
0001
,
1100
0010
0101
0010
1001
0010
0101
0010
1100
0110
1010
0101
1001
1100
0110
0011
,
1110
0001
1000
0010
0100
0001
1000
0010
1100
1000
0100
0010
1000
0001
0010
0100
,
0011
1000
0001
0100
0010
1000
0010
0100
1010
0001
0100
0010
1000
0100
0010
0100
,
0011
1000
0001
0010
0100
0001
0010
0001
0101
0010
1000
0100
0001
0100
0010
1000
,
1101
0011
0110
1001
0110
1010
0110
0101
1010
0011
1100
0110
0011
1100
0101
0110
,
1011
0100
1000
0010
0100
1000
0100
0010
1001
0010
0100
0010
0001
1000
0010
0100
,
0011
1000
0010
0100
0001
0010
1000
0001
0101
0010
0100
1000
0001
0100
0010
1000
,
1010
0100
1000
0100
1000
0010
0100
1000
0110
0010
0001
0100
0010
1000
0001
0010
,
1100
0010
0100
1000
0010
0100
0010
1000
0101
1000
0100
0011
1100
0010
0101
0010
,
1001
0100
1000
0010
0001
0100
0010
0001
0011
0100
0010
0001
1000
0100
0020
0100
,
1001
0001
0130
1000
0010
0100
0010
0001
0110
1000
0001
0010
0100
0010
0200
0001
,
1010
0001
1301
0010
1100
0001
0110
1000
0011
1000
0101
0010
1100
0001
0110
0001
,
1110
0011
0110
1100
0101
0011
1100
0110
0001
0010
0100
1000
0100
0010
0001
0010
,
1101
1100
1100
1100
,
0011
0011
0011
0011
,
0110
0110
0110
0110
,
1010
0000
0000
1010
1010
0000
0000
0000
0000
0000
0000
0000
0000
0000
0000
0000
,
0021
0100
0230
0000
,
0311
0000
0010
0000
1100
0000
0010
0000
0101
0000
0000
1010
1010
0000
1010
0000
,
2100
0001
3002
0000
,
1103
0000
0100
0000
0101
0000
0010
0000
0011
0000
0000
0110
0110
0000
0110
0000
,
1020
0001
1130
0010
0102
0100
1013
0010
,
2100
0010
3110
0100
1002
0100
1103
0010
,
0210
0010
1301
1000
0102
1000
1103
0010
,
0210
0001
0311
1000
1200
0010
0311
1100
,
1010
0000
0010
0000
0010
0000
0010
0000
0011
0000
0010
0000
0010
0000
0010
0000
0110
0000
0010
0000
0010
0000
0010
0000
1010
0000
0010
0000
0010
0000
0010
0100
,
1010
0000
0010
0000
0010
0000
0010
0000
0110
0000
0010
0000
0010
0000
0010
0000
0011
0000
0010
0000
0010
0000
0010
0000
1010
0000
0010
0000
0010
0000
1010
0001
,
0110
0000
0000
0000
0000
0000
0000
0000
0000
0000
0000
0000
0110
0000
0000
0000
0000
0000
0000
0000
0000
0000
0000
0000
0110
0000
0000
0000
0000
0000
0000
0000
0000
0000
0000
0000
0110
0000
0000
0000
0000
0000
1000
0000
0000
0000
0000
0000
0110
0000
0000
0000
0000
0000
0000
0000
0000
0000
0000
0000
0110
0000
0000
0000
0000
0000
0000
0000
0000
0000
0000
0000
0110
0000
0000
0000
0000
0000
0000
0000
0000
0000
0000
0000
0110
0000
0000
0000
0000
0000
0001
0000
0000
0000
0000
0000
0110
0000
0000
0000
0000
0000
0000
0000
0110
0000
0000
0000
0000
0000
0000
0000
0110
0000
0000
0000
0000
0000
0000
0000
0110
0000
0000
0000
0000
0000
0000
0000
0110
0000
0000
0000
0000
0000
0000
0000
0110
0000
0000
0000
0000
0000
0000
0000
0110
0000
0000
0000
0000
0000
0110
0000
0000
0000
0000
0000
0110
0000
0000
0000
0000
0000
0110
0000
0000
0000
0000
0000
0110
0000
0000
0000
0000
0000
0110
0000
0000
0000
0000
0000
0110
0000
0000
0000
0000
0000
0110
0000
0000
0000
0000
0000
,
0222
0000
0000
0000
,
1333
0100
1000
0100
0011
0001
0100
0010
1100
0001
0100
0001
1010
0010
1000
0001
,
1100
0010
1000
0100
0011
0100
1000
0001
1001
0010
0100
0001
1010
0010
0100
0001
,
1100
0010
0100
1000
0101
0100
0010
0001
1100
0010
0100
1000
0011
0100
0010
0001
,
0110
0010
1000
0001
1010
0100
0001
0010
1001
0100
0010
1100
0011
1000
0110
0001
,
1010
0100
0001
1000
0101
0010
0100
0001
0011
0100
1000
0010
1100
0010
0001
0010
,
0110
1000
0100
0001
1001
0010
0001
0010
0101
0010
0100
1000
0011
0100
0010
1000
,
0110
0100
0010
0001
1100
0001
0010
1000
1010
0100
1000
0010
1100
0001
0010
0100
,
1101
0110
1001
0101
0111
1010
0110
1001
1110
0101
0110
0011
1001
0100
0010
0001
,
0002
0010
0100
0000
0010
0100
1000
0000
0100
1000
0100
0000
1000
0100
1000
0000
,
0203
0010
0001
0000
1000
0010
0001
0000
0010
0001
0010
0000
1000
0010
1000
0000
,
0320
0001
0100
0000
1000
0001
1000
0000
0100
0001
0100
0000
1000
0100
1000
0000
,
2030
0100
0010
0000
0100
0010
0001
0000
0011
0000
0011
0000
0011
0011
0011
0011
,
3110
0001
0010
0100
0011
1000
0100
0010
0101
1000
0100
0010
1001
0010
2000
0100
,
0101
0010
3001
0100
0011
1000
0010
1000
1100
0010
0001
0010
0101
1000
0020
0100
,
1001
0100
1030
0100
0101
0010
0100
1000
0011
0100
0010
1000
0110
0001
0010
0100
,
1011
1001
1011
1001
1011
0000
1011
0000
,
2101
0000
0000
0000
0100
0000
0000
0000
0100
0000
0000
0100
0000
0000
0100
0000
,
3200
0000
0000
0000
0010
0000
0000
0000
0010
0000
0000
0010
0000
0000
0010
0000
,
0320
0000
0000
0000
0001
0100
1000
0100
0001
0100
1000
0001
0100
1000
0001
0100
,
0032
1000
0100
0010
0100
0010
0100
1000
0100
1000
0010
0100
0010
0100
1000
0100
,
1013
0000
1000
0000
1000
0000
1000
0000
1010
0000
1000
0000
1000
0000
1000
0000
1100
0000
1000
0000
1000
0000
1000
0000
1001
0000
1000
0000
1000
0000
1000
0100
,
1010
0000
1000
0000
1000
0000
1000
0000
1100
0000
1000
0000
1000
0000
1000
0000
1010
0000
1000
0000
1000
0000
1000
0000
1001
0000
1000
0000
1000
0000
1000
0010
,
1100
0000
0000
0000
0000
0000
0000
0000
0000
0000
0000
0000
0100
0000
0000
0000
0000
0000
0000
0000
0000
0000
0000
0000
0100
0000
0000
0000
0000
0000
0000
0000
0000
0000
0000
0000
0100
0000
0000
0000
0000
0000
0010
0000
0000
0000
0000
0000
0101
0000
0000
0000
0000
0000
0000
0000
0000
0000
0000
0000
0100
0000
0000
0000
0000
0000
0000
0000
0000
0000
0000
0000
0100
0000
0000
0000
0000
0000
0000
0000
0000
0000
0000
0000
0100
0000
0000
0000
0000
0000
0010
0000
0000
0000
0000
0000
1100
0000
0000
0000
0000
0000
0000
0000
0100
0000
0000
0000
0000
0000
0000
0000
0100
0000
0000
0000
0000
0000
0000
0000
0100
0000
0000
0000
0000
0000
0000
0000
0100
0000
0000
0000
0000
0000
0000
0000
0100
0000
0000
0000
0000
0000
0000
0000
0100
0000
0000
0000
0000
0000
0100
0000
0000
0000
0000
0000
0100
0000
0000
0000
0000
0000
0100
0000
0000
0000
0000
0000
0100
0000
0000
0000
0000
0000
0100
0000
0000
0000
0000
0000
0100
0000
0000
0000
0000
0000
0100
0000
0000
0000
0000
0000
,
2220
0000
0000
0000
,
3331
1000
0100
0010
0111
1000
0100
0001
0101
0010
1000
0010
1011
0100
0001
1000
,
0011
0100
1000
0100
1110
0001
0010
0001
1100
0010
1000
0001
1101
0010
1000
0100
,
0011
0100
0010
1000
1011
0100
0010
1000
1001
0010
0100
1000
1110
0001
0100
0010
,
1001
0010
0100
0001
1101
0100
0010
0001
0110
0010
0100
1010
0101
0010
0101
0010
,
0011
0100
0001
0010
0111
1000
0001
0100
1100
0010
0100
0001
1011
0100
1000
0010
,
0011
0100
0010
0001
1101
0010
0100
1000
0011
1000
0100
0010
1110
0001
0010
0001
,
1100
0100
0001
0010
1011
1000
0100
0001
0101
0010
0100
1000
0111
1000
0001
0010
,
1101
0010
0101
0010
1101
0010
1100
0001
1110
0110
1010
0101
1001
0011
0110
1100
,
1011
0100
1000
0001
0111
0010
1000
0100
0110
0001
0010
0100
1110
0010
0100
1000
,
0011
1000
0001
0010
1011
1000
0100
0001
0011
0010
0100
1000
1101
0010
0100
0001
,
1010
0100
0010
0001
1110
0001
1000
0100
0101
0010
0001
0010
1101
0010
1000
0001
,
0110
0010
0100
1000
1101
0010
0100
0001
0110
1000
0100
1000
0111
1000
0101
0010
,
1010
0100
0001
0100
1011
0100
0010
1000
0011
0100
1000
0100
1011
0100
2000
0001
,
0101
0010
3100
1000
1101
0010
0001
1000
0110
1000
0100
0010
0111
1000
0020
0100
,
1001
0000
0100
0000
0031
0000
0010
0000
1101
0000
0010
0000
0001
0000
0100
0000
1010
0000
0100
0000
0010
0000
0001
0000
1011
0000
0100
0000
1000
0000
0100
0010
,
1101
0000
0100
0000
0100
0000
0100
0010
1101
0000
0100
0000
0100
0000
0100
1000
0111
0000
0100
0000
0100
0000
1100
0010
1100
0100
0100
0100
1100
0100
0100
0100
,
0100
0000
0000
0000
0010
0000
0000
0000
0002
0000
0000
0000
0000
0000
0000
0000
0000
0000
0000
0000
0000
0000
0000
0000
0000
0000
0000
0000
0000
0000
0000
0000
0000
0000
0000
0000
0013
0100
1000
0000
0000
0000
0000
0000
0000
0000
0000
0000
0000
0000
0000
0000
0000
0000
0000
0000
0000
0000
0000
0000
0000
0000
0000
0000
;
